#TITLE:To-Happy Mix-;
#SUBTITLE:~D-turbo original~;
#ARTIST:dj Sharpnel;
#TITLETRANSLIT:;
#SUBTITLETRANSLIT:;
#ARTISTTRANSLIT:;
#CREDIT:;
#BANNER:banner copiar.jpg;
#BACKGROUND:to BG copiar.jpg;
#LYRICSPATH:;
#CDTITLE:dtittle.png;
#MUSIC:DJ Sharpnel - From The Heart - Hell Part - 03 - To (HAPPY mix).mp3;
#OFFSET:0.500;
#SAMPLESTART:29.503;
#SAMPLELENGTH:25.940;
#SELECTABLE:YES;
#BPMS:0.000=368.119,542.333=368.118;
#STOPS:;
#BGCHANGES:692.000=to BG copiar.jpg=1.000=0=0=1,
692.500=to BG copiar.jpg=1.000=1=0=1,
99999=-nosongbg-=1.000=0=0=0 // don't automatically add -songbackground-
;
// cache tags:
#FIRSTBEAT:3.500;
#LASTBEAT:861.500;
#SONGFILENAME:Songs/Chilean Keyboard Megapack 3/(D-turbo) To -happymix-/To.sm;
#HASMUSIC:1;
#HASBANNER:1;
#MUSICLENGTH:140.998;
// end cache tags

//---------------dance-single - asd----------------
#NOTES:
     dance-single:
     asd:
     Challenge:
     11:
     1.000,1.000,1.000,0.085,0.000,814.000,293.000,12.000,0.000,0.000:
0000
0000
0000
0000
0000
0000
0000
1001
,
0000
0100
0000
1000
0000
0100
0000
0010
,
0000
0001
0000
0010
0000
0100
0000
1000
,
0000
0010
0000
0100
0000
0001
0000
0010
,
0000
1000
0000
0010
0000
0100
0000
0001
,
0000
0010
0000
0100
0000
1000
0000
0100
,
0000
0001
0000
1000
0000
0001
0000
0100
,
0000
0010
0000
0100
0000
1000
0000
0010
,
0000
0100
0000
0011
0000
0100
0000
1010
,
0000
0100
0000
0010
0000
0001
0000
0010
,
0000
0100
0000
1000
0000
0100
0000
0010
,
0000
0001
0000
0100
0000
1000
0000
0001
,
0000
0100
0000
0010
0000
0100
0000
1000
,
0000
0010
0000
0100
0000
0001
0000
0010
,
0000
0100
0000
1000
0000
0010
0000
0100
,
0000
0001
0000
1000
0000
0100
0000
0010
,
0000
0001
0000
1010
0000
0100
0000
1001
,
0000
0010
0000
0100
0000
1001
0000
0001
,
0000
0100
0000
1010
0000
0100
0000
1001
,
0000
0100
0000
1000
0000
0100
0000
0010
,
0000
0001
0000
0100
0000
0010
0000
1000
,
0000
0001
0000
0100
0000
0010
0000
0100
,
0000
1000
0000
0010
0000
0001
0000
0100
,
0000
0010
0000
1000
0000
0100
0000
0010
,
0000
0001
0000
0110
0000
0001
0000
0110
,
0000
0001
0000
1000
0000
0110
0000
0001
,
0000
1000
0000
0110
0000
1000
0000
0101
,
0000
1000
0000
0100
0000
1000
0000
0100
,
0000
0010
0000
0100
0000
0001
0000
0010
,
0000
0100
0000
1000
0000
0010
0000
0100
,
0000
1000
0000
0100
0000
0010
0000
1000
,
0000
0001
0000
0100
0000
0010
0000
1000
,
0000
0010
0000
0001
0000
1000
0010
0101
,
0000
0010
0000
0100
0000
1010
0000
0001
,
0000
0010
0000
0101
0000
1000
0000
0110
,
0000
0001
0000
0010
0000
0100
0000
1000
,
0000
0010
0000
0100
0000
0001
0000
0010
,
0000
0100
0000
1000
0000
0010
0000
0100
,
0000
0001
0000
0010
0000
0100
0000
1000
,
0000
0010
0000
0100
0000
0001
0000
0010
,
0000
0100
0000
0001
0000
1000
0000
0110
,
0000
1000
0000
0001
0000
0011
0000
1000
,
0000
0100
0000
0011
0000
1000
0000
0110
,
0000
0010
0000
0100
0000
0001
0000
0010
,
0000
1000
0000
0010
0000
0100
0000
0001
,
0000
0010
0000
1000
0000
0100
0000
0010
,
0000
0100
0000
0001
0000
0010
0000
0100
,
0000
0010
0000
0100
0000
1000
0000
0100
,
0000
0010
0000
0100
0000
0001
0000
1010
,
0000
0100
0000
0010
0000
1001
0000
0010
,
0000
0100
0000
1001
0000
0100
0000
1010
,
0000
0100
0000
0001
0000
0010
0000
0100
,
0000
1000
0000
0010
0000
0001
0000
0010
,
0000
0100
0000
0010
0000
1000
0000
0100
,
0000
0010
0000
0001
0000
0010
0000
0100
,
0000
1000
0000
0010
0000
0001
0000
0100
,
0000
0010
0000
1000
0000
0001
0000
1100
,
0000
0010
0000
1000
0000
0101
0000
0010
,
0000
1000
0000
1010
0000
0100
0000
1001
,
0000
0010
0000
0001
1000
0100
0001
0010
,
0100
1000
0100
0010
0001
0100
1000
0001
,
0010
0100
1000
0010
0001
1000
0010
0100
,
0010
0100
1000
0001
0100
0010
0100
2002
,
0000
0000
0000
3003
,
0000
0000
0000
0000
0000
0000
0000
1001
,
0000
0100
0000
0001
0000
0010
0000
0101
,
0000
1000
0000
0001
0000
0110
0000
1000
,
0000
0010
0000
0100
0000
1000
0000
0010
,
0000
0100
0000
1100
0000
1001
0000
0101
,
0000
0110
0000
1100
0000
1001
0000
0101
,
0000
1010
0000
1100
0000
0101
0000
0010
,
0000
0100
0000
0110
0000
0001
0000
0101
,
0000
1010
0000
1010
0000
1001
0000
0110
,
0000
1000
0000
0100
0000
0001
0000
0110
,
0000
1000
0000
0100
0000
1001
0000
0100
,
0000
0010
0000
0100
0000
1010
0000
0101
,
0000
0010
0000
1100
0000
0110
0000
1000
,
0000
0100
0000
0010
0000
0001
0000
0110
,
0000
1001
0000
0110
0000
1010
0000
0100
,
0000
0010
0000
0001
0000
0010
0000
0100
,
0000
1000
0000
0100
0000
0010
0000
1010
,
0000
0100
0000
0010
0000
1000
0000
0011
,
0000
0100
0000
0010
0000
1100
0000
0010
,
0000
0100
0000
1000
0000
0010
0000
0001
,
0000
0010
0000
1001
0000
0101
0000
0110
,
0000
1001
0000
0110
0000
1001
0000
0110
,
0000
0011
0000
1100
0000
1010
0000
0100
,
0000
0010
0000
0001
0000
1000
0000
0010
,
0000
1100
0000
0011
0000
1100
0000
0101
,
0000
0010
0000
1000
0000
0010
0000
0101
,
0000
1000
0000
0100
0000
0110
0000
0001
,
0000
0100
0000
1000
0000
0010
0000
1100
,
0000
0011
0000
1100
0000
2002
0000
0000
,
0000
0000
0000
0000
,
0000
0000
0000
0000
,
3003
0000
0000
0000
,
0000
0000
0000
0000
0000
0000
0000
0110
,
0000
0000
0000
0000
0000
1001
0000
0000
,
0000
0000
0000
1001
0000
0000
0000
1001
,
0000
0010
0000
1000
0000
0000
0000
0000
,
0000
0220
0000
0000
0330
0000
0000
1001
,
0000
0100
0000
1010
0000
1000
0000
0101
,
0000
0001
0000
1010
0000
0100
0000
1001
,
0000
0010
0000
0110
0000
0001
0000
1010
,
0000
0100
0000
1001
0000
0010
0000
0110
,
0000
0001
0000
1010
0000
0100
0000
1010
,
0000
0100
0000
1010
0000
0001
0000
0011
,
0000
0100
0000
1001
0000
0100
0000
1010
,
0000
0110
0000
1001
0000
0101
0000
0110
,
0000
1000
0000
0101
0000
0010
0000
1001
,
0000
1000
0000
0101
0000
0010
0000
1100
,
0000
0100
0000
0011
0000
0010
0000
1100
,
0000
0010
0000
1001
0000
0100
0000
0011
,
0000
1000
0000
1001
0000
0010
0000
0110
,
0000
1000
0000
1001
0000
0010
0000
0101
,
0000
1010
0000
0000
0000
1001
0000
0000
,
0000
0110
0000
0000
0000
1100
0000
0100
,
0000
0010
0000
0110
0000
0010
0000
1001
,
0000
0010
0000
1010
0000
0010
0000
1001
,
0000
0010
0000
0101
0000
0010
0000
1100
,
0000
1000
0000
0110
0000
0010
0000
1010
,
0000
0100
0000
1001
0000
0100
0000
0101
,
0000
0001
0000
1010
0000
0100
0000
1010
,
0000
0100
0000
0101
0000
0001
0000
1010
,
0000
0110
0000
1010
0000
0010
0000
1100
,
0000
0001
0000
0110
0000
1000
0000
0011
,
0000
0001
0000
1010
0000
0100
0000
0101
,
0000
0010
0000
1001
0000
1000
0000
0101
,
0000
0010
0000
1100
0000
0001
0000
1010
,
0000
0100
0000
1001
0000
0010
0000
0110
,
0000
1000
0000
0101
0000
0010
0000
0110
,
0000
0000
0000
0000
0000
0000
0000
1000
,
0000
0001
0000
0100
0000
0010
0000
1001
,
0000
0010
0000
1001
0000
0010
0000
1100
,
0000
0001
0000
0110
0000
1000
0000
0011
,
0000
0100
0000
1001
0000
0100
0000
1010
,
0000
0100
0000
0011
0000
0010
0000
1100
,
0000
0010
0000
1100
0000
0001
0000
0110
,
0000
0100
0000
1010
0000
0010
0000
0101
,
0000
0001
0000
0110
0000
1001
0000
0110
,
0000
0101
0000
1001
0000
0110
0000
1100
,
0000
0010
0000
0110
0000
0001
0000
1001
,
0000
0010
0000
0101
0000
0001
0000
1010
,
0000
0100
0000
0010
0000
1010
0000
0001
,
0000
1010
0000
0100
0000
1001
0000
0010
,
0000
0101
0000
0001
0000
1010
0000
0100
,
0000
0010
0000
1010
0000
0001
0000
0011
,
0000
0010
0000
1100
0000
0010
0000
1001
,
0000
0100
0000
1010
0000
1000
0000
0011
,
0000
0010
0000
0110
0000
1000
0000
1010
,
0000
0100
0000
0011
0000
0220
0000
0000
,
0000
0000
0000
0330
,
0000
0000
0000
0000
0000
0000
0000
1001
,
0000
0000
0000
0000
0000
0000
0000
0110
,
0000
0000
0000
0000
0000
0000
0000
1001
,
0000
0000
0000
0110
0000
0000
0000
1001
,
0000
0000
0000
0000
0000
0000
0000
1010
,
0000
0101
0000
1100
0000
0011
0000
0110
,
0000
1001
0000
0110
0000
0011
0000
1000
,
0000
0100
0000
0010
0000
0100
0000
0001
,
0000
1010
0000
0011
0000
1100
0000
0110
,
0000
0010
0000
1000
0000
0001
0000
1100
,
0000
0010
0000
1000
0000
0011
0000
1000
,
0000
0010
0000
1000
0000
0110
0000
1001
,
0000
0001
0000
1100
0000
0110
0000
1000
,
0000
0001
0000
0010
0000
1000
0000
0110
,
0000
1001
0000
0110
0000
0011
0000
0010
,
0000
1000
0000
0010
0000
0100
0000
0010
,
0000
1000
0000
0001
0000
0100
0000
1001
,
0000
0010
0000
0100
0000
0001
0000
1001
,
0000
0010
0000
1000
0000
0110
0000
1000
,
0000
0010
0000
0001
0000
0100
0000
0010
,
0000
1000
0000
1010
0000
0101
0000
0110
,
0000
1001
0000
1010
0000
0101
0000
1100
,
0000
0011
0000
0110
0000
1001
0000
0100
,
0000
0010
0000
0001
0000
0010
0000
0100
,
0000
1010
0000
0101
0000
0110
0000
1010
,
0000
0100
0000
0010
0000
0001
0000
0101
,
0000
1000
0000
0100
0000
0011
0000
1000
,
0000
0010
0000
0001
0000
0100
0000
1001
,
0000
0110
0000
1100
0000
2002
0000
0000
,
0000
0000
3003
0010
0100
1000
0100
0010
,
0001
0100
1000
0100
0010
0001
0010
0100
,
1000
0001
0100
0010
1000
0001
0100
0010
,
0000
1100
0000
0011
0000
0110
0000
1001
,
0000
0100
0000
0010
0000
1000
0000
1001
,
0000
0010
0000
1000
0000
0110
0000
0001
,
0000
0100
0000
1000
0000
0100
0000
0001
,
0000
0010
0000
1100
0000
0011
0000
0101
,
0000
1010
0000
1100
0000
0011
0000
1100
,
0000
0011
0000
1010
0000
0101
0000
1000
,
0000
0010
0000
0001
0000
0100
0000
0010
,
0000
1100
0000
0011
0000
0101
0000
1010
,
0000
0001
0000
0100
0000
0001
0000
1010
,
0000
0100
0000
0001
0000
0011
0000
0100
,
0000
1000
0000
0010
0000
1100
0000
0101
,
0000
0010
0000
1001
0000
0110
0000
1000
,
0000
0100
0000
0010
0000
0001
0000
1100
,
0000
0011
0000
1010
0000
0101
0000
0010
,
0000
1000
0000
0100
0000
0010
0000
0001
,
0000
0100
0000
0010
0000
0001
0000
1100
,
0000
0010
0000
1000
0000
0100
0000
0110
,
0000
1000
0000
0100
0000
0011
0000
1000
,
0000
0100
0000
0010
0000
0001
0000
0100
,
0000
0010
0000
1001
0000
0011
0000
1100
,
0000
0011
0000
1100
0000
0011
0000
1100
,
0000
0101
0000
1010
0000
0101
0000
0010
,
0000
1000
0000
0100
0000
0010
0000
0001
,
0000
1100
0000
0011
0000
1100
0000
0011
,
0000
0100
0000
1000
0000
0100
0000
0101
,
0000
0010
0000
1000
0000
0101
0000
0010
,
0000
1000
0000
0100
0000
0010
0000
1001
,
0000
0110
0000
0101
0000
2002
0000
0000
,
0000
0000
0000
0000
,
0000
0000
0000
0000
,
0000
0000
0000
3003
0000
0000
0000
0000
;
